搜索
 找回密码
 注册 | 로그인 | Join

QQ登录

只需一步,快速开始

只需一步,快速开始

KRMV音乐网诚意招收大量版主 音乐资源版块采用论坛币购买+回复方式获取下载地址 国外或者香港 澳门 台湾的会员 请用中国内地的邮箱进行注册 【注意】VIP会员购买操作说明(必看)
查看: 122|回复: 0
Sam 发表于 2019-9-22 05:58:54 | 显示全部楼层 |阅读模式
Ride

Ride

We Girls

Bugs

1080P

编码信息
General
Complete name : K:\新建文件\[KRWIT]WeGirls - Ride (Bugs).mp4
Format : MPEG-4
Format profile : Base Media / Version 2
Codec ID : mp42 (mp42/mp41)
File size : 628 MiB
Duration : 3 min 28 s
Overall bit rate mode : Variable
Overall bit rate : 25.2 Mb/s
Encoded date : UTC 2019-09-09 05:47:06
Tagged date : UTC 2019-09-09 05:58:10
TIM : 00:00:00:00
TSC : 24000
TSZ : 1001

Video
ID : 1
Format : AVC
Format/Info : Advanced Video Codec
Format profile : Main@L4.1
Format settings : CABAC / 4 Ref Frames
Format settings, CABAC : Yes
Format settings, Reference fra : 4 frames
Codec ID : avc1
Codec ID/Info : Advanced Video Coding
Duration : 3 min 28 s
Bit rate : 24.9 Mb/s
Width : 1 920 pixels
Height : 1 080 pixels
Display aspect ratio : 16:9
Frame rate mode : Constant
Frame rate : 23.976 (24000/1001) FPS
Color space : YUV
Chroma subsampling : 4:2:0
Bit depth : 8 bits
Scan type : Progressive
Bits/(Pixel*Frame) : 0.501
Stream size : 619 MiB (99%)
Language : English
Encoded date : UTC 2019-09-09 05:47:08
Tagged date : UTC 2019-09-09 05:47:08
Color range : Limited
Color primaries : BT.709
Transfer characteristics : BT.709
Matrix coefficients : BT.709
Codec configuration box : avcC

Audio
ID : 2
Format : AAC LC
Format/Info : Advanced Audio Codec Low Complexity
Codec ID : mp4a-40-2
Duration : 3 min 28 s
Source duration : 3 min 28 s
Bit rate mode : Variable
Bit rate : 317 kb/s
Maximum bit rate : 409 kb/s
Channel(s) : 2 channels
Channel layout : L R
Sampling rate : 48.0 kHz
Frame rate : 46.875 FPS (1024 SPF)
Compression mode : Lossy
Stream size : 7.90 MiB (1%)
Source stream size : 7.90 MiB (1%)
Language : English
Encoded date : UTC 2019-09-09 05:47:13
Tagged date : UTC 2019-09-09 05:47:13
Ride
资源下载
付费链接
隐藏的内容需要付费购买才能查看: 80 微币购买
VIP链接
隐藏的内容仅限VIP才能查看。
资源下载指引及说明:
1、本站资源所有链接均不保证能有效下载文件。如免回复的免费链接失效后,请回复帖子获取长期有效链接下载或购买付费链接。
2、本站免费资源链接采用境外网盘作为存储节点并测试过中国境内均可访问,但有可能导致中国境内个别会员因使用不同的宽带运营商不能访问情况发生。
3、本站付费资源需要网盘提取码才能下载,需要使用微币或VIP用户权限才可以查看下载。点击开通VIP会员充值微币
4、部分免费内容设有积分等级权限查看,到达积分所属等级即可查看下载。
5、微听娱乐网和发布者亦不承擔会员將本站资源用于盈利或非法目的之任何后果和法律责任。
6、所有资源内容来源于互联网,与本站无关,如侵犯您的权益,请联系管理员邮箱:admin@krwit.com 删除帖子。
回复

使用道具 举报

 
您需要登录后才可以回帖 登录 | 注册 | 로그인 | Join

本版积分规则

快速回复 返回列表 返回顶部