搜索
 找回密码
 注册 | 로그인 | Join

QQ登录

只需一步,快速开始

只需一步,快速开始

KRMV音乐网诚意招收大量版主 音乐资源版块采用论坛币购买+回复方式获取下载地址 国外或者香港 澳门 台湾的会员 请用中国内地的邮箱进行注册 【注意】VIP会员购买操作说明(必看)
查看: 87|回复: 0
Sam 发表于 2019-9-6 16:31:45 | 显示全部楼层 |阅读模式
LALALAY

LALALAY

宣美

Melon

1080P

编码信息
General
Complete name : K:\新建文件\[KRWIT]宣美 - LALALAY(1080pMelon).mp4
Format : MPEG-4
Format profile : Base Media
Codec ID : isom (isom/iso2/avc1/mp41)
File size : 207 MiB
Duration : 3 min 24 s
Overall bit rate mode : Variable
Overall bit rate : 8 505 kb/s
Writing application : Lavf56.18.100

Video
ID : 1
Format : AVC
Format/Info : Advanced Video Codec
Format profile : Main@L4
Format settings : CABAC / 4 Ref Frames
Format settings, CABAC : Yes
Format settings, Reference fra : 4 frames
Codec ID : avc1
Codec ID/Info : Advanced Video Coding
Duration : 3 min 24 s
Bit rate : 8 309 kb/s
Nominal bit rate : 10 000 kb/s
Width : 1 920 pixels
Height : 1 080 pixels
Display aspect ratio : 16:9
Frame rate mode : Constant
Frame rate : 29.970 (29970/1000) FPS
Color space : YUV
Chroma subsampling : 4:2:0
Bit depth : 8 bits
Scan type : Progressive
Bits/(Pixel*Frame) : 0.134
Stream size : 202 MiB (98%)
Writing library : x264 core 144 r2525 40bb568
Encoding settings : cabac=1 / ref=3 / deblock=1:0:0 / analyse=0x1:0x111 / me=hex / subme=7 / psy=1 / psy_rd=1.00:0.00 / mixed_ref=1 / me_range=16 / chroma_me=1 / trellis=1 / 8x8dct=0 / cqm=0 / deadzone=21,11 / fast_pskip=1 / chroma_qp_offset=-2 / threads=60 / lookahead_threads=8 / sliced_threads=0 / nr=0 / decimate=1 / interlaced=0 / bluray_compat=0 / constrained_intra=0 / bframes=3 / b_pyramid=2 / b_adapt=1 / b_bias=0 / direct=1 / weightb=1 / open_gop=0 / weightp=2 / keyint=250 / keyint_min=25 / scenecut=40 / intra_refresh=0 / rc_lookahead=40 / rc=abr / mbtree=1 / bitrate=10000 / ratetol=1.0 / qcomp=0.60 / qpmin=0 / qpmax=69 / qpstep=4 / vbv_maxrate=12000 / vbv_bufsize=3000 / nal_hrd=none / filler=0 / ip_ratio=1.40 / aq=1:1.00
Codec configuration box : avcC

Audio
ID : 2
Format : AAC LC
Format/Info : Advanced Audio Codec Low Complexity
Codec ID : mp4a-40-2
Duration : 3 min 24 s
Bit rate mode : Variable
Bit rate : 192 kb/s
Maximum bit rate : 12.0 Mb/s
Channel(s) : 2 channels
Channel layout : L R
Sampling rate : 44.1 kHz
Frame rate : 43.066 FPS (1024 SPF)
Compression mode : Lossy
Stream size : 4.63 MiB (2%)
Default : Yes
Alternate group : 1
LALALAY
资源下载
付费链接
隐藏的内容需要付费购买才能查看: 80 微币购买
VIP链接
隐藏的内容仅限VIP才能查看。
VIP提取码
隐藏的内容仅限VIP才能查看。
解压密码(VIP)
隐藏的内容仅限VIP才能查看。
资源下载指引及说明:
1、本站资源所有链接均不保证能有效下载文件。
2、本站免费资源链接采用境外网盘作为存储节点并测试过中国境内均可访问,但有可能导致中国境内个别会员因使用不同的宽带运营商不能访问情况发生。
3、本站付费资源需要网盘提取码才能下载,需要使用微币或VIP用户权限才可以查看下载。点击开通VIP会员充值微币
4、部分免费内容设有积分等级权限查看,到达积分所属等级即可查看下载。
5、微听娱乐网和发布者亦不承擔会员將本站资源用于盈利或非法目的之任何后果和法律责任。
6、所有资源内容来源于互联网,与本站无关,如侵犯您的权益,请联系管理员邮箱:admin@krwit.com 删除帖子。
 
您需要登录后才可以回帖 登录 | 注册 | 로그인 | Join

本版积分规则

快速回复 返回列表 返回顶部